Páginas vistas en total

domingo, 1 de mayo de 2011

[MU]No strings attached(2011)[720p][Bdrip][Subs.Esp]

Sinopsis

Cuando la chica de 14 años Emma Kurtzman rechazó los tímidos requiebros adolescentes de Adam Franklin en la puerta del Gran Pabellón de Camp Weehawken, ninguno de los dos sabía nada del sexo real y adulto. Pero sí que lo saben cuando, años después, Emma (Natalie Portman) y Adam (Ashton Kutcher) vuelven a a encontrarse (como parecen haber hecho al azar toda su vida) y terminan en la cama practicando el sexo. Y practicándolo muy bien.

Y puesto que Emma tiene, como ella dice, una “alergia morrocotuda a las relaciones”, y Adam igualmente las rechaza - mayormente porque su padre (Kevin Kline), una antigua estrella de la televisión, está saliendo con una reciente ex novia de Adam - , ambos deciden prescindir del follón emocional que conlleva una relación y ser simplemente amigos con derecho a roce. Rollo sin cuelgues, sexo sin sustos, coitos sin coste. Sin ataduras, ni mentiras, ni celos, ni achuchones, ni emoticonos, ni desayunos compartidos, sin “te echo de menos”, sin apodos para ciertas partes del cuerpo, sin liarse... en definitiva, “Sin compromiso”.

Lo que comienza siendo una solución perfecta para sus necesidades físicas se convierte en algo más peliagudo cuando Adam, sin darse cuenta, lleva sus sentimientos a la cama (y al armario del hospital, al asiento de atrás del coche y a prácticamente cualquier sitio que ofrezca un soporte horizontal). Al final, ambos terminan intentando desatar los lazos que intentaban evitar y esforzándose por responder a una pregunta clave: ¿pueden dos amigos practicar el sexo sin que el amor se interponga?

Título: Sin compromiso
Título original: No Strings Attached
País: USA
Productora: Paramount Pictures, Handsomecharlie Films, Montecito Picture Co., Katalyst Media
Director: Ivan Reitman
Guión: Elizabeth Meriwether
Reparto: Natalie Portman, Ashton Kutcher, Cary Elwes, Kevin Kline, Greta Gerwig, Lake Bell, Olivia Thirlby, Ludacris, Jake Johnson, Mindy Kaling, Ophelia Lovibond, Talia Balsam, Guy Branum, Ben Lawson, Jennifer Irwin, Adhir Kalyan, Stefanie Scott, Brian Dierker
Calificación: No recomendada para menores de 16 años
Capturas



Datos de la descarga
General
      Complete name : No strings attached (2011).mkv
      Format : Matroska
      File size : 4.37 GiB
      Duration : 1h 47mn
      Overall bit rate : 5 795 Kbps
      Writing application : x264.exe
      Writing library : mkv2rls v1.4 (date: 2011 mar 29)
   Video #1
      ID : 1
      Format : AVC
      Format/Info : Advanced Video Codec
      Format profile : High@L4.1
      Format settings, CABAC : Yes
      Format settings, ReFrames : 5 frames
      Muxing mode : Container profile=Unknown@4.1
      Codec ID : V_MPEG4/ISO/AVC
      Duration : 1h 47mn
      Bit rate : 4 170 Kbps
      Nominal bit rate : 4 286 Kbps
      Width : 1 280 pixels
      Height : 536 pixels
      Display aspect ratio : 2.35:1
      Frame rate : 23.976 fps
      Resolution : 24 bits
      Colorimetry : 4:2:0
      Scan type : Progressive
      Bits/(Pixel*Frame) : 0.253
      Stream size : 3.14 GiB (72%)
      Writing library : x264 core 115 r1937 aa21558
      Audio #2
      ID : 2
      Format : DTS
      Format/Info : Digital Theater Systems
      Codec ID : A_DTS
      Duration : 1h 47mn
      Bit rate mode : Constant
      Bit rate : 1 510 Kbps
      Channel(s) : 6 channels
      Channel positions : Front: L C R, Surround: L R, LFE
      Sampling rate : 48.0 KHz
      Resolution : 24 bits
      Stream size : 1.14 GiB (26%)
      Language : English
   Text #3
      ID : 3
      Format : UTF-8
      Codec ID : S_TEXT/UTF8
      Codec ID/Info : UTF-8 Plain Text
      Language : English

Calidad: Bdrip
Servidor: Megaupload
Links: 46 partes
Pass: www.chilecomparte.cl/kike1207

Links
DLC
TXT

15 comentarios:

  1. La parte 45 dice que no está disponible :(

    ResponderEliminar
  2. sólo debes esperar, comunmente ocurre x mantención de megaupload

    ResponderEliminar
  3. Pue lo mismo parte 45 no sirve

    ResponderEliminar
  4. Esperando la parte 45, pedazo de aporte ;) saludos!

    ResponderEliminar
  5. Hola. Tremenda Natalie Portman.
    Lamentablemente la parte 4 y la 45 aparecen tachadas. Voy a revisar el dia de mañana o pasado mañana haber si es solo mantención o si eliminaron definitivamente los enlaces.
    Igual gracias por la subida, se debe ver fantastico.

    ResponderEliminar
  6. lo mismo , la parte 45 ojala la pueda bajar porque me dijeron que esta pelicula es muy buena

    ResponderEliminar
  7. Aun no se puede bajar la parte 45, porfavor si no es mucho molestar, podrias revisar (?)
    Muchas gracias de ante mano =)

    ResponderEliminar
  8. Maestro de Maestros... la parte 41 ya no está arriba, es la única que me falta... traté de bajar el TXT para buscar el URL del archivo 41 pero el txt también está abajo :(

    ResponderEliminar
  9. Gracias mister, retomé la descarga sin problemas, te pasaste! gracias por todo.

    ResponderEliminar
  10. los link para descargar desde megaupload no funciona

    ResponderEliminar
  11. la baje ayer 03 de septiembre y todo bien, excelente,, gracias

    ResponderEliminar
  12. Descargando para ver si me rio un poco ^_^

    Gracias!

    ResponderEliminar